La Cueva 2014 BRRip 720p [Castellano]




Three boys and two girls go backpacking from the city to a paradisaical island. There they rent motorcycles, travel around the prettiest and most remote spots, camp out in the woods, on a coastal cliff, get drunk and swim in the sea. The following day they enter a deep, maze-like cave to explore it and get lost inside. If they want to survive in the cave they’ll have to suffer the most extreme and inhuman experience a person could ever possibly face. They have no water, no food, no chance whatsoever
-----------------------------------------------------------
Cinco amigos deciden pasar unos días en Formentera. Cada uno se lleva su propia mochila para disfrutar de las playas de arena blanca y las aguas cristalinas. Al segundo día, los cinco encuentran el acceso a una cueva en un acantilado. Podrían explorarla, piensan. Sería divertido. Y al principio lo es. Pero cuando la oscuridad los va envolviendo poco a poco, se dan cuenta de que se han perdido. No saben dónde está la salida. Las horas pasan. Los días, también. Se acaban los víveres y las pilas de las linternas. Siguen atrapados. Y en una situación límite como esa, nadie sabe cómo puede uno reaccionar.

La Cueva (2014)
*Audio Español Castellano

General
Format                                   : Matroska
Format version                           : Version 2
File size                                : 826 MiB
Duration                                 : 1h 19mn
Overall bit rate                         : 1 446 Kbps
Encoded date                             : UTC 2014-09-29 06:06:49
Writing application                      : mkvmerge v7.2.0 (\'On Every Street\') 64bit built on Sep 13 2014 15:52:10
Writing library                          : libebml v1.3.0 + libmatroska v1.4.1
DURATION                                 : 00:00:19.500000000
NUMBER_OF_FRAMES                         : 1
NUMBER_OF_BYTES                          : 104
_STATISTICS_WRITING_APP                  : mkvmerge v7.2.0 (\'On Every Street\') 64bit built on Sep 13 2014 15:52:10
_STATISTICS_WRITING_DATE_UTC             : 2014-09-29 06:06:49
_STATISTICS_TAGS                         : BPS DURATION NUMBER_OF_FRAMES NUMBER_OF_BYTES
Video

ID                                       : 1
Format                                   : AVC
Format/Info                              : Advanced Video Codec
Format profile                           : [email protected]
Format settings, CABAC                   : Yes
Format settings, ReFrames                : 4 frames
Codec ID                                 : V_MPEG4/ISO/AVC
Duration                                 : 1h 19mn
Bit rate                                 : 1 254 Kbps
Width                                    : 1 280 pixels
Height                                   : 720 pixels
Display aspect ratio                     : 16:9
Frame rate mode                          : Constant
Frame rate                               : 24.000 fps
Color space                              : YUV
Chroma subsampling                       : 4:2:0
Bit depth                                : 8 bits
Scan type                                : Progressive
Bits/(Pixel*Frame)                       : 0.057
Stream size                              : 700 MiB (85%)
Writing library                          : x264 core 142 r2479 dd79a61
Default                                  : Yes
Forced                                   : No
Audio
ID                                       : 2
Format                                   : AC-3
Format/Info                              : Audio Coding 3
Mode extension                           : CM (complete main)
Format settings, Endianness              : Big
Codec ID                                 : A_AC3
Duration                                 : 1h 19mn
Bit rate mode                            : Constant
Bit rate                                 : 192 Kbps
Channel(s)                               : 6 channels
Channel positions                        : Front: L C R, Side: L R, LFE
Sampling rate                            : 48.0 KHz
Bit depth                                : 16 bits
Compression mode                         : Lossy
Stream size                              : 110 MiB (13%)
Language                                 : Spanish
Default                                  : Yes
Forced                                   : No
Text
ID                                       : 3
Format                                   : UTF-8
Codec ID                                 : S_TEXT/UTF8
Codec ID/Info                            : UTF-8 Plain Text
Title                                    : Encoded By / Encodeado Por:  CALLIXTUS
Default                                  : Yes
Forced                                   : No








Comparte esta entrada

La Cueva 2014 BRRip 720p [Castellano]
  • hace 1 año
    buenisima!!!! me encanta esa peli
Para poder comentar necesitas Registrarte. O ya tienes usuario?, Iniciar Sesión!
Autor
Ver perfil de Callixtus Callixtus
Hombre Curioso Curioso  Seguir  Mensaje
0 115 4
Relacionados
Nuevo Mensaje
Para:
Titulo: