Kamikaze 2014 BRRip 720p [Castellano]




Slastan, a Karadjistan man, is willing to blow himself up aboard a Moscow plane bound for Madrid, but his plan is complicated when, due to a snowstorm, the flight is delayed. Staying in a hotel, the terrorist will have to live with the 332 people who he will kill until the storm ceases, which prevents him from continuing his mission. Slastan knows, speaks and relates to his future victims and begins to wonder if suicide and ending the lives of all these innocent people is really right.
-----------------------------------------------------------
Slatan es un hombre corriente de Karadjistan enfrentado a una situación extrema: hacerse estallar en un avión de pasajeros de Moscú con destino a Madrid. Sin embargo, los planes de Slatan se tuercen cuando una tormenta de nieve retrasa el vuelo y todos los pasajeros son alojados en un hotel de montaña hasta que pase el temporal. Este retraso obliga a Slatan a convivir, durante tres días, con sus futuras víctimas. Unos pasajeros con una visión positiva y optimista de la vida… A 20 grados bajo cero la vida no siempre se sigue el plan previsto.

Kamikaze (2014)
*Audio Español Castellano

General
Format                                   : Matroska
Format version                           : Version 2
File size                                : 1.06 GiB
Duration                                 : 1h 36mn
Overall bit rate                         : 1 575 Kbps
Encoded date                             : UTC 2014-09-30 10:31:46
Writing application                      : mkvmerge v7.2.0 (\'On Every Street\') 64bit built on Sep 13 2014 15:52:10
Writing library                          : libebml v1.3.0 + libmatroska v1.4.1
DURATION                                 : 00:00:19.500000000
NUMBER_OF_FRAMES                         : 1
NUMBER_OF_BYTES                          : 104
_STATISTICS_WRITING_APP                  : mkvmerge v7.2.0 (\'On Every Street\') 64bit built on Sep 13 2014 15:52:10
_STATISTICS_WRITING_DATE_UTC             : 2014-09-30 10:31:46
_STATISTICS_TAGS                         : BPS DURATION NUMBER_OF_FRAMES NUMBER_OF_BYTES
Video

ID                                       : 1
Format                                   : AVC
Format/Info                              : Advanced Video Codec
Format profile                           : [email protected]
Format settings, CABAC                   : Yes
Format settings, ReFrames                : 4 frames
Codec ID                                 : V_MPEG4/ISO/AVC
Duration                                 : 1h 36mn
Bit rate                                 : 1 254 Kbps
Width                                    : 1 280 pixels
Height                                   : 544 pixels
Display aspect ratio                     : 2.35:1
Frame rate mode                          : Constant
Frame rate                               : 24.000 fps
Color space                              : YUV
Chroma subsampling                       : 4:2:0
Bit depth                                : 8 bits
Scan type                                : Progressive
Bits/(Pixel*Frame)                       : 0.075
Stream size                              : 842 MiB (78%)
Writing library                          : x264 core 142 r2479 dd79a61
Default                                  : Yes
Forced                                   : No
Audio
ID                                       : 2
Format                                   : AC-3
Format/Info                              : Audio Coding 3
Mode extension                           : CM (complete main)
Format settings, Endianness              : Big
Codec ID                                 : A_AC3
Duration                                 : 1h 36mn
Bit rate mode                            : Constant
Bit rate                                 : 320 Kbps
Channel(s)                               : 6 channels
Channel positions                        : Front: L C R, Side: L R, LFE
Sampling rate                            : 48.0 KHz
Bit depth                                : 16 bits
Compression mode                         : Lossy
Stream size                              : 220 MiB (20%)
Language                                 : Spanish
Default                                  : Yes
Forced                                   : No
Text
ID                                       : 3
Format                                   : UTF-8
Codec ID                                 : S_TEXT/UTF8
Codec ID/Info                            : UTF-8 Plain Text
Title                                    : Encoded By / Encodeado Por:  CALLIXTUS
Default                                  : Yes
Forced                                   : No








Comparte esta entrada

Kamikaze 2014 BRRip 720p [Castellano]
Para poder comentar necesitas Registrarte. O ya tienes usuario?, Iniciar Sesión!
Nuevo Mensaje
Para:
Titulo: